Videoeditointi ohjelma jolla lisätä blur?

Liittynyt
16.10.2016
Viestejä
1 627
Tiedättekö mitään ilmaista tai edullista videoeditointi ohjelmaa jolla voi esim lisätä sumennettu kohta videoon?
 
Viimeksi muokattu:
Liittynyt
01.01.2017
Viestejä
789
Ilmaisella Davinci Resolvella ainakin onnistuu. Toki varmaan lähes millä tahansa muullakin, koska kyseessä on varsin perustoiminnallisuus.
 
Liittynyt
16.10.2016
Viestejä
1 627
Hmm asensin tuon mutta ei tunnu tukevan mun videoita jotka on nauhoitettu Frapsillä.
 
Liittynyt
16.10.2016
Viestejä
1 627
General
Unique ID : 229019584881421520760438200553817287386 (0xAC4B9150AFB65E97863A4A2E5188AADA)
Complete name : E:\Dwm 2012-07-08 06-46-28-09.mkv
Format : Matroska
Format version : Version 4
File size : 6.83 GiB
Duration : 1 h 49 min
Overall bit rate : 8 924 kb/s
Encoded date : UTC 2015-11-01 17:44:32
Writing application : mkvmerge v6.4.1 ('Omega Point') built on Sep 16 2013 22:05:10
Writing library : libebml v1.3.0 + libmatroska v1.4.1

Video
ID : 1
Format : AVC
Format/Info : Advanced Video Codec
Format profile : High@L4
Format settings : 1 Ref Frames
Format settings, CABAC : No
Format settings, Reference frames : 1 frame
Codec ID : V_MPEG4/ISO/AVC
Duration : 1 h 49 min
Bit rate : 8 820 kb/s
Width : 1 680 pixels
Height : 1 050 pixels
Display aspect ratio : 16:10
Frame rate mode : Constant
Frame rate : 30.000 FPS
Color space : YUV
Chroma subsampling : 4:2:0
Bit depth : 8 bits
Scan type : Progressive
Bits/(Pixel*Frame) : 0.167
Stream size : 6.60 GiB (97%)
Writing library : x264 core 116 r2019 9cc407d
Encoding settings : cabac=0 / ref=1 / deblock=1:0:0 / analyse=0x3:0x113 / me=hex / subme=7 / psy=1 / psy_rd=1.00:0.00 / mixed_ref=0 / me_range=16 / chroma_me=1 / trellis=1 / 8x8dct=1 / cqm=0 / deadzone=21,11 / fast_pskip=1 / chroma_qp_offset=-2 / threads=6 / sliced_threads=0 / nr=0 / decimate=1 / interlaced=0 / bluray_compat=0 / constrained_intra=0 / bframes=0 / weightp=2 / keyint=250 / keyint_min=25 / scenecut=40 / intra_refresh=0 / rc_lookahead=40 / rc=abr / mbtree=1 / bitrate=8820 / ratetol=1.0 / qcomp=0.60 / qpmin=0 / qpmax=69 / qpstep=4 / ip_ratio=1.40 / aq=1:1.00
Default : Yes
Forced : No

Audio
ID : 2
Format : MPEG Audio
Format version : Version 1
Format profile : Layer 3
Format settings : Joint stereo / MS Stereo
Codec ID : A_MPEG/L3
Codec ID/Hint : MP3
Duration : 1 h 49 min
Bit rate mode : Constant
Bit rate : 128 kb/s
Channel(s) : 2 channels
Sampling rate : 44.1 kHz
Compression mode : Lossy
Stream size : 100 MiB (1%)
Writing library : LAME3.98.4
Default : Yes
Forced : No
 
Liittynyt
16.10.2016
Viestejä
1 627
No näiden Fraps nauhoitusten kanssa on kyllä aina ollut ongelmia. Esim toimivat ainoastaan VLC:n 2.2.6 versiossa. Uudemmissa VLC versioissa nää videot on täysin harmaata sotkua. :(
 

qnixsuomi

BANNATTU
BANNED
Liittynyt
20.10.2016
Viestejä
940
Niin ja sulle on monesti sanottu että korvaisit tuon ikivanhan Frapsin jollain muulla ohjelmalla..
 
Toggle Sidebar

Statistiikka

Viestiketjut
93 249
Viestejä
1 902 451
Jäsenet
39 912
Uusin jäsen
Shaarine

Hinta.fi

Ylös Bottom